#TITLE:SDO China;
#SUBTITLE:;
#ARTIST:.....;
#TITLETRANSLIT:SDO China;
#SUBTITLETRANSLIT:;
#ARTISTTRANSLIT:.....;
#CREDIT:;
#BANNER:SDO China-bn.png;
#BACKGROUND:SDO China-bg.png;
#LYRICSPATH:;
#CDTITLE:pm4cd.png;
#MUSIC:SDO China.mp3;
#OFFSET:0.160;
#SAMPLESTART:32.797;
#SAMPLELENGTH:20.000;
#SELECTABLE:YES;
#BPMS:0.000=140.000;
#STOPS:;
#BGCHANGES:;
// cache tags:
#FIRSTBEAT:4.500;
#LASTBEAT:312.250;
#SONGFILENAME:Songs/Music V.I.P ^_^/SDO China/SDO China.sm;
#HASMUSIC:1;
#HASBANNER:1;
#MUSICLENGTH:136.411;
// end cache tags

//---------------dance-single - ----------------
#NOTES:
     dance-single:
     :
     Hard:
     13:
     1.000,1.000,1.000,0.015,0.960,868.000,251.000,2.000,0.000,2.000:
0000
0000
0000
0000
,
0000
0002
0000
0000
0000
0000
0000
0000
,
0000
0000
1003
0100
0001
0010
1000
0100
0001
0010
0100
0001
1000
0010
0100
0001
,
1000
0010
0001
0100
0010
1000
0001
0100
0010
1000
0001
0010
1000
0100
0001
0010
,
1000
0100
1000
0010
0001
0100
1000
0010
0001
0100
1000
0001
0100
0010
1000
0001
,
0100
0010
0100
1000
0001
0010
0100
1000
0001
0010
0100
0001
0010
1000
0100
0001
,
0010
1000
0010
0001
0100
1000
0010
0001
0100
1000
0001
0100
0010
1000
0001
0100
,
0010
1000
0001
1000
0100
0010
0001
1000
0100
0010
1000
0010
0001
0100
1000
0010
,
0001
0100
1000
0001
0100
0010
1000
0001
0100
0010
0001
0100
1000
0010
0001
0100
,
1000
0010
0100
0001
1000
0010
0100
0001
1000
0010
0001
1000
0100
0010
0001
1000
,
0100
0001
2100
0010
0100
0010
0001
0010
0001
0010
0100
0010
0001
0010
0100
0010
,
0001
0100
3011
0000
0100
0000
0011
0000
1000
0000
0011
0000
0100
0000
1100
0000
,
0010
1100
0001
0110
1000
0101
1000
1010
,
0001
1100
0010
1001
0001
0110
1000
0101
,
0010
1100
0010
0101
1000
0110
0001
0101
,
1000
0110
0001
1100
1000
0110
0001
1010
,
0100
0011
0100
1010
0001
0110
1000
0011
,
1000
0101
0010
1001
0100
1010
0010
0101
,
1000
0000
0110
1000
0001
0010
0100
0001
1000
0010
0100
0001
1000
0100
0001
0010
,
1000
0100
0011
0000
0110
0000
1010
0000
0101
0000
1001
0000
1010
0000
0110
0000
,
0011
1100
0011
1001
0110
0011
1100
0101
,
1010
1100
0011
0101
0110
1001
0110
0101
,
1010
0110
1001
1010
0101
0011
1100
0101
,
0110
1001
0101
1010
0110
0011
1100
0110
,
1001
1010
0101
1100
0011
1001
0110
0011
,
1100
0110
1001
0101
0110
1001
1100
1010
,
0101
0000
1011
0100
0010
1000
0001
0010
0100
0001
0010
1000
0001
0010
0100
1000
,
0010
0001
1000
0100
0010
0001
0010
0100
0010
0001
0100
0001
0010
1000
0100
0001
,
1000
0010
1000
0000
0101
0000
1100
0000
0001
0000
1010
0000
0001
0100
1000
0000
,
0011
0000
1000
0000
0011
0000
1010
0000
0001
0000
1010
0000
0001
0100
1000
0000
,
0011
0000
1000
0000
0101
0000
1100
0000
0001
0000
1010
0000
0001
0010
1000
0000
,
0101
0000
1000
0000
0011
0000
1010
0000
0001
0000
1100
0000
0001
0010
1000
0000
,
0101
0000
0001
0000
1100
0000
0101
0000
1000
0000
0011
0000
1000
0100
0001
0000
,
1010
0000
0001
0000
1100
0000
0101
0000
1000
0000
0101
0000
1000
0010
0001
0000
,
1100
0000
0001
0000
1010
0000
0011
0000
1000
0000
0101
0000
1000
0010
0001
0000
,
1100
0000
0011
0000
1000
0100
0010
0001
0100
0000
0010
1001
0010
0100
0010
0001
,
1000
0100
0010
1000
0011
0000
1010
0000
0001
0000
1010
0000
0001
0100
1000
0000
,
0011
0000
1000
0000
0011
0000
1010
0000
0001
0000
1100
0000
0001
0100
1000
0000
,
0011
0000
1000
0000
0011
0000
1010
0000
0001
0000
1010
0000
0001
0100
1000
0000
,
0101
0000
1000
0000
0101
0000
1100
0000
0001
0000
1010
0000
0001
0100
1000
0000
,
0011
0000
0001
0000
1100
0000
0101
0000
1000
0000
0101
0000
1000
0010
0001
0000
,
1010
0000
0001
0000
1100
0000
0101
0000
1000
0000
0011
0000
1000
0100
0001
0000
,
1100
0000
0001
0000
1010
0000
0011
0000
1000
0000
0101
0000
1000
0010
0001
0000
,
1100
0000
0110
0001
0100
1000
0010
0001
0100
1000
0100
0001
1000
0010
0100
0001
,
1000
0010
0110
0000
0000
0000
0000
0000
0001
0010
0100
0000
1000
0000
0100
0000
,
0000
0000
1100
0001
0010
1000
0010
0100
0001
0010
0100
0010
0001
0100
1000
0010
,
0100
0001
1010
0100
1000
0001
0100
0001
0100
1000
0010
0100
0001
0010
1000
0001
,
0100
0010
1100
0001
0010
0100
1000
0010
0100
0001
0010
0001
0100
1000
0010
0100
,
0010
1000
0011
0100
0001
1000
0010
0100
0001
1000
0100
0001
0010
1000
0100
0001
,
0010
1000
0011
0100
0001
0010
1000
0100
1000
0001
0100
0001
0010
1000
0100
0010
,
0001
0010
1001
0100
0001
0100
0010
0100
1000
0001
0100
0001
0010
1000
0001
1000
,
0100
0001
0110
1000
0001
0100
0001
1000
0001
0010
1000
0001
0100
0010
1000
0001
,
0100
0001
1100
0010
0001
1000
0100
0001
1000
0010
0001
0001
0100
0100
0010
0010
,
1000
1000
0011
0000
0110
0000
0011
0000
0110
0000
0001
0000
1010
0000
0100
0000
,
0101
1000
1010
0100
0101
0010
1010
0110
,
0011
1010
0101
1010
0101
0010
1100
0100
,
0011
0100
0101
1000
1100
0001
1100
1001
,
1010
0101
1010
0101
1010
0100
0011
0100
,
1100
0001
0101
0010
1001
0100
0110
0101
,
1100
0011
1100
0011
1100
0010
0101
0010
,
1010
0001
1100
0100
0101
1000
0011
1010
,
1100
0000
1010
0001
0010
1000
0010
0100
0001
0010
0100
0010
0001
0100
1000
0010
,
0100
0001
1010
0100
1000
0001
0100
0001
0100
1000
0010
0100
0001
0010
1000
0001
,
0100
0010
1100
0001
0010
0100
1000
0010
0100
0001
0010
0001
0100
1000
0010
0100
,
0010
1000
0011
0100
0001
1000
0010
0100
0001
1000
0100
0001
0010
1000
0100
0001
,
0010
1000
0011
0100
0001
0010
1000
0100
1000
0001
0100
0001
0010
1000
0100
0010
,
0001
0010
1001
0100
0001
0100
0010
0100
1000
0001
0100
0001
0010
1000
0001
1000
,
0100
0001
0110
1000
0001
0100
0001
1000
0001
0010
1000
0001
0100
0010
1000
0001
,
0100
0001
1100
0010
0001
1000
0100
0001
1000
0010
0001
0001
0100
0100
0010
0010
,
1000
1000
0011
0000
0110
0000
0011
0000
0110
0000
0001
0000
1010
0000
0100
0000
,
0101
1000
1010
0100
0101
0010
1010
0110
,
0011
1010
0101
1010
0101
0010
1100
0100
,
0011
0100
0101
1000
1100
0001
1100
1001
,
1010
0101
1010
0101
1010
0100
0011
0100
,
1100
0001
0101
0010
1001
0100
0110
0101
,
1100
0011
1100
0011
1100
0010
0101
0010
,
1010
0001
1100
0100
0101
1000
0011
1010
,
1100
0000
1000
0100
0001
0010
0001
0010
0100
1000
1000
0100
0001
0010
0001
0100
,
0010
1000
0000
0000
0000
0000
0000
0000
0000
0000
0000
0000
0000
0000
0000
0000
;

//---------------dance-single - ----------------
#NOTES:
     dance-single:
     :
     Medium:
     1:
     0.000,0.000,0.000,0.000,0.000,0.000,0.000,0.000,0.000,0.000:
0000
0000
0000
0000
;
